+ Reply to Thread
Results 1 to 2 of 2
  1. #1
    Administrators Duckload.us's Avatar
    Join Date
    Dec 2010
    Posts
    99,722
    Thanks
    9
    Thanked 101,130 Times in 48,430 Posts

    Question []-[ mkv ҾѴش] robin hood (2018) - ѤúԹ 1080p @henrykai - §ç



    A war-hardened crusader Robin of Loxley (Taron Egerton) and his Moorish commander (Jamie Foxx) mount an audacious revolt against the corrupt English crown

    Video
    ID : 1
    Format : AVC
    Format/Info : Advanced Video Codec
    Format profile : [email protected]
    Format settings : CABAC / 4 Ref Frames
    Format settings, CABAC : Yes
    Format settings, RefFrames : 4 frames
    Codec ID : V_MPEG4/ISO/AVC
    Duration : 1 h 56 min
    Bit rate mode : Constant
    Bit rate : 9 007 kb/s
    Nominal bit rate : 10 000 kb/s
    Width : 1 920 pixels
    Height : 800 pixels
    Display aspect ratio : 2.40:1
    Frame rate mode : Constant
    Frame rate : 23.976 (24000/1001) FPS
    Color space : YUV
    Chroma subsampling : 4:2:0
    Bit depth : 8 bits
    Scan type : Progressive
    Bits/(Pixel*Frame) : 0.245
    Stream size : 7.31 GiB (89%)
    Title : ROBIN HOOD (2018) - ѤúԹ 1080P @HENRYKAI - §
    Default : Yes
    Forced : No
    Color range : Limited
    Color primaries : BT.709
    Transfer characteristics : BT.709
    Matrix coefficients : BT.709

    Audio #1
    ID : 2
    Format : E-AC-3
    Format/Info : Enhanced Audio Coding 3
    Format settings, Endianness : Big
    Codec ID : A_EAC3
    Duration : 1 h 56 min
    Bit rate mode : Constant
    Bit rate : 640 kb/s
    Channel(s) : 6 channels
    Channel positions : Front: L C R, Side: L R, LFE
    Sampling rate : 48.0 kHz
    Frame rate : 187.500 FPS (256 SPF)
    Compression mode : Lossy
    Stream size : 532 MiB (6%)
    Title : ENG AC-3 5.1 @HENRYKAI
    Language : English
    Service kind : Complete Main
    Default : No
    Forced : No

    Audio #2
    ID : 3
    Format : AC-3
    Format/Info : Audio Coding 3
    Format settings, Endianness : Big
    Codec ID : A_AC3
    Duration : 1 h 56 min
    Bit rate mode : Constant
    Bit rate : 448 kb/s
    Channel(s) : 2 channels
    Channel positions : Front: L R
    Sampling rate : 44.1 kHz
    Frame rate : 28.711 FPS (1536 SPF)
    Bit depth : 16 bits
    Compression mode : Lossy
    Delay relative to video : 1 s 350 ms
    Stream size : 372 MiB (4%)
    Title : THAI AC-3 2.0 @HENRYKAI
    Language : Thai
    Service kind : Complete Main
    Default : Yes
    Forced : No

    Text
    ID : 4
    Format : UTF-8
    Codec ID : S_TEXT/UTF8
    Codec ID/Info : UTF-8 Plain Text
    Duration : 1 h 46 min
    Bit rate : 52 b/s
    Count of elements : 1597
    Stream size : 40.9 KiB (0%)
    Title : ENG SDH @HENRYKAI
    Language : English
    Default : No
    Forced : No









    Cr : @HENRYKAI

    Download: cornfile
    http://cornfile.com/7hc64lwx2wzk
    Download: mekafile
    http://www.mekafile.com/dl.php?f=2c76c9bQaxKQ

  2. #2
    Senior Member
    Join Date
    Jun 2014
    Posts
    414
    Thanks
    0
    Thanked 0 Times in 0 Posts
    ͺسѺ

Thread Information

Users Browsing this Thread

There are currently 1 users browsing this thread. (0 members and 1 guests)

     

Posting Permissions

  • You may not post new threads
  • You may not post replies
  • You may not post attachments
  • You may not edit your posts