Transformers (2007) [MKV HEVC 4K HDR10]
[English : Dolby Atmos / Dolby TrueHD 7.1 Ch] [พากย์ไทย : Dolby Digital Plus 5.1 Ch] [บรรยาย PGS : English / ไทย]

การต่อสู้ของเหล่าจักรกลสังหารที่มาจากจักรวาลอันไกล โพ้น ฝ่ายออโต้บอทผู้พิทักษ์รักสันติ ซึ่งมี ออพติมัส ไพร์ม เป็นผู้นำ
และฝ่ายดีเซปทิคอนส์ ผู้ทำลายล้างซึ่งมี เมกะทรอน เป็นผู้นำ หวังจะยึดครองแหล่งพลังงานบนโลก สงครามของทั้งสองฝ่ายจึงเกิดขึ้นบนโลกของเรา
ซึ่งกุญแจสำคัญที่ฝ่ายทำลายล้างต้องการครอบครองนั้นอ ยู่ที่เด็กหนุ่มที่ชื่อ แซม วิทวิคกี้ เขาคือความหวังสุดท้ายที่จะช่วยปกป้องโลก!!!

An ancient struggle between two Cybertronian races, the heroic Autobots and the evil Decepticons, comes to Earth, with a clue to the ultimate power held by a teenager.









Media Info

Quote:


General

Complete name : Transformers (2007) 4K [EN TrueHD 7.1 Atmos TH DD+ 5.1].mkv
Format : Matroska
Format version : Version 4
File size : 14.0 GiB
Duration : 2 h 23 min
Overall bit rate mode : Variable
Overall bit rate : 14.0 Mb/s
Movie name : Transformers (2007) 4K [EN TrueHD 7.1 Atmos TH DD+ 5.1]
Encoded date : UTC 2019-02-07 10:13:48
Writing application : mkvmerge v30.1.0 ( Forever And More ) 64-bit
Writing library : libebml v1.3.6 + libmatroska v1.4.9

Video
ID : 1
Format : HEVC
Format/Info : High Efficiency Video Coding
Commercial name : HDR10
Format profile : Main [email protected]@High
Codec ID : V_MPEGH/ISO/HEVC
Duration : 2 h 23 min
Bit rate : 9 558 kb/s
Width : 3 840 pixels
Height : 2 160 pixels
Display aspect ratio : 16:9
Frame rate mode : Constant
Frame rate : 23.976 (24000/1001) FPS
Color space : YUV
Chroma subsampling : 4:2:0 (Type 2)
Bit depth : 10 bits
Bits/(Pixel*Frame) : 0.048
Stream size : 9.58 GiB (68%)
Default : Yes
Forced : No
Color range : Limited
Color primaries : BT.2020
Transfer characteristics : PQ
Matrix coefficients : BT.2020 non-constant
Mastering display color primar : Display P3
Mastering display luminance : min: 0.0001 cd/m2, max: 1000 cd/m2

Audio #1
ID : 2
Format : MLP FBA 16-ch
Format/Info : Meridian Lossless Packing FBA with 16-channel presentation
Commercial name : Dolby TrueHD with Dolby Atmos
Codec ID : A_TRUEHD
Duration : 2 h 23 min
Bit rate mode : Variable
Bit rate : 4 077 kb/s
Maximum bit rate : 6 768 kb/s
Channel(s) : 8 channels
Channel layout : L R C LFE Ls Rs Lb Rb
Sampling rate : 48.0 kHz
Frame rate : 1 200.000 FPS (40 SPF)
Compression mode : Lossless
Stream size : 4.08 GiB (29%)
Language : English
Default : Yes
Forced : No
Number of dynamic objects : 11
Bed channel count : 1 channel
Bed channel configuration : LFE

Audio #2
ID : 3
Format : E-AC-3
Format/Info : Enhanced AC-3
Commercial name : Dolby Digital Plus
Codec ID : A_EAC3
Duration : 2 h 23 min
Bit rate mode : Constant
Bit rate : 256 kb/s
Channel(s) : 6 channels
Channel layout : L R C LFE Ls Rs
Sampling rate : 48.0 kHz
Frame rate : 31.250 FPS (1536 SPF)
Compression mode : Lossy
Stream size : 263 MiB (2%)
Language : Thai
Service kind : Complete Main
Default : No
Forced : No

Text #1
ID : 4
Format : PGS
Muxing mode : zlib
Codec ID : S_HDMV/PGS
Codec ID/Info : Picture based subtitle format used on BDs/HD-DVDs
Duration : 2 h 15 min
Bit rate : 43.7 kb/s
Count of elements : 3666
Stream size : 42.2 MiB (0%)
Language : English
Default : No
Forced : No

Text #2
ID : 5
Format : PGS
Muxing mode : zlib
Codec ID : S_HDMV/PGS
Codec ID/Info : Picture based subtitle format used on BDs/HD-DVDs
Duration : 2 h 22 min
Bit rate : 26.1 kb/s
Count of elements : 3456
Stream size : 26.7 MiB (0%)
Language : Thai
Default : No
Forced : No

Menu
00:00:00.000 : en01)00:00:00:000
00:02:04.207 : en02)00:02:04:207
00:08:54.033 : en03)00:08:54:033
00:15:33.140 : en04)00:15:33:140
00:22:20.881 : en05)00:22:20:881
00:27:42.160 : en06)00:27:42:160
00:33:24.877 : en07)00:33:24:877
00:38:57.501 : en08)00:38:57:501
00:45:13.419 : en09)00:45:13:419
00:51:45.936 : en10)00:51:45:936
00:58:44.187 : en11)00:58:44:187
01:06:47.920 : en12)01:06:47:920
01:11:53.058 : en13)01:11:53:058
01:16:55.944 : en14)01:16:55:944
01:23:36.845 : en15)01:23:36:845
01:29:03.671 : en16)01:29:03:671
01:36:28.240 : en17)01:36:28:240
01:43:57.606 : en18)01:43:57:606
01:49:45.245 : en19)01:49:45:245
01:56:53.506 : en20)01:56:53:506
02:03:09.382 : en21)02:03:09:382
02:10:43.418 : en22)02:10:43:418
02:15:01.802 : en23)02:15:01:802


Download: cornfile
http://cornfile.com/zrww4hwh62h8
Download: mekafile
http://www.mekafile.com/dl.php?f=41572bbQaIjs