+ Reply to Thread
Results 1 to 2 of 2
  1. #1
    Administrators Duckload.us's Avatar
    Join Date
    Dec 2010
    Posts
    99,761
    Thanks
    9
    Thanked 101,224 Times in 48,466 Posts

    Question [ฝรั่ง]-•[Netflix]• High Flying Bird (2019) สุดเพดานฟ้า [เสียงอังกฤษ 5.1]-[บรรยายไทย + อังกฤษ]-[Rip]-[Soundtrack บรรยายไทย]-WEB-DL.AC-3.1080p.



    High Flying Bird



    Rating: 6.6/10 Year: 2019 Genres: Drama / Sport Runtime: 90 min Language: English Director: Steven Soderbergh Writers: Tarell Alvin McCraney Cast: Andrรฉ Holland / Melvin Gregg / Eddie Tavaresโ€ฆ Plot:

    n/A

    เรย์ เบิร์ก ผู้จัดการนักกีฬา (อังเดร ฮอลแลนด์) ต้องเลือกระหว่างลีกกับนักฟุตบอลในช่วงที่มีการงดแข่ งขันบาสเก็ตบอลอาชีพ หน้าที่การงานของเขาต้องสั่นคลอน แต่เรย์กลับเลือกเดิมพันที่สูงกว่า เหลือเวลาอีกเพียง 72 ชั่วโมงในการวางเกมที่ท้าทาย เขาหลบหลีกคู่ต่อสู้ระดับบิ๊กได้ทั้งหมดเมื่อค้นพบช่ องโหว่ที่อาจพลิกเกมได้ตลอดกาล ผลลัพธ์ที่ได้เกิดคำถามขึ้นมาใหม่ว่าใครครองเกมอยู่แ ละใครกันแน่ที่ควรครองเกม ภาพยนตร์เรื่องนี้กำกับการแสดงโดยสตีเวน โซเดอร์เบิร์ก ผู้กำกับดีกรีออสการ์ (จาก Traffic) และเขียนบทโดยทาเรลล์ อัลวิน แม็คเครนีย์ มือเขียนบทระดับออสการ์ (จาก Moonlight) สุดเพดานฟ้า (High Flying Bird) นำแสดงโดยทีมนักแสดงรวมดาว ทั้งซาซี่ บีตซ์, เมลวิน เกร็กก์, ซอนจา ซอห์น, แซกคารี่ ควินโต้, ไคล์ แมคแลชแลน และบิล ดุ๊ค ร่วมด้วยนักบาสเก็ตบอลเอ็นบีเออย่างเรกเก้ แจ็คสัน, คาร์ล-แอนโทนี ทาวน์ส และโดโนแวน มิตเชลล์

    Format : Matroska
    Format version : Version 4 / Version 2
    File size : 3.00 GiB
    Duration : 1 h 30 min
    Overall bit rate : 4 740 kb/s

    Video
    ID : 1
    Format : HEVC
    Format/Info : High Efficiency Video Coding
    Format profile : Main [email protected]@Main
    Codec ID : V_MPEGH/ISO/HEVC
    Duration : 1 h 30 min
    Bit rate : 4 125 kb/s
    Width : 1 920 pixels
    Height : 1 080 pixels
    Display aspect ratio : 16:9
    Frame rate mode : Constant
    Frame rate : 24.000 FPS
    Color space : YUV
    Chroma subsampling : 4:2:0 (Type 2)
    Bit depth : 10 bits
    Bits/(Pixel*Frame) : 0.083
    Stream size : 2.60 GiB (86%)
    Default : Yes
    Forced : No
    Color range : Limited
    Color primaries : BT.2020
    Transfer characteristics : SMPTE ST 2084
    Matrix coefficients : BT.2020 non-constant
    Mastering display color pri : R: x=0.680000 y=0.320000, G: x=0.265000 y=0.690000, B: x=0.150000 y=0.060000, White point: x=0.312700 y=0.329000
    Mastering display luminance : min: 0.0001 cd/m2, max: 1000.0000 cd/m2
    Maximum Content Light Level : 738 cd/m2
    Maximum Frame-Average Light : 166 cd/m2

    Audio
    ID : 2
    Format : E-AC-3
    Format/Info : Enhanced Audio Coding 3
    Format settings, Endianness : Big
    Codec ID : A_EAC3
    Duration : 1 h 30 min
    Bit rate mode : Constant
    Bit rate : 640 kb/s
    Channel(s) : 6 channels
    Channel positions : Front: L C R, Side: L R, LFE
    Sampling rate : 48.0 kHz
    Frame rate : 187.500 FPS (256 spf)
    Compression mode : Lossy
    Stream size : 415 MiB (14%)
    Service kind : Complete Main
    Default : Yes
    Forced : No
    HANDLER_NAME : Audio Media Handler

    Text #1
    ID : 3
    Format : UTF-8
    Codec ID : S_TEXT/UTF8
    Codec ID/Info : UTF-8 Plain Text
    Duration : 1 h 29 min
    Bit rate : 97 b/s
    Count of elements : 1707
    Stream size : 63.9 KiB (0%)
    Title : English
    Language : English
    Default : No
    Forced : No

    Text #2
    ID : 4
    Format : UTF-8
    Codec ID : S_TEXT/UTF8
    Codec ID/Info : UTF-8 Plain Text
    Duration : 1 h 29 min
    Bit rate : 216 b/s
    Count of elements : 1640
    Stream size : 142 KiB (0%)
    Language : Thai
    Default : Yes
    Forced : No












    Download: cornfile
    http://cornfile.com/lwk0ifxdtrc3
    Download: mekafile
    http://www.mekafile.com/dl.php?f=53daf3bQbu3y

  2. #2
    Senior Member
    Join Date
    Jun 2014
    Posts
    421
    Thanks
    0
    Thanked 0 Times in 0 Posts
    ขอบคุณครับ

+ Reply to Thread

Thread Information

Users Browsing this Thread

There are currently 1 users browsing this thread. (0 members and 1 guests)

     

Posting Permissions

  • You may not post new threads
  • You may not post replies
  • You may not post attachments
  • You may not edit your posts